<?xml version="1.0" standalone="no"?>
<!DOCTYPE svg PUBLIC "-//W3C//DTD SVG 1.1//EN" "http://www.w3.org/Graphics/SVG/1.1/DTD/svg11.dtd" >
<svg xmlns="http://www.w3.org/2000/svg">
<defs>
  <font id="iconfont" horiz-adv-x="4150.87966079658">
    <font-face font-family="iconfont"
      units-per-em="1001" ascent="1001"
      descent="0" />
    <missing-glyph horiz-adv-x="0" />
    <glyph glyph-name="accept"
      unicode="&#xE001;"
      horiz-adv-x="1287" d="M1047.32199 998.6259712L934.58365 886.013414L480.36274 451.20361L348.01767 573.2012L230.37872 685.8136999999999L0 465.28053L117.639808 352.6680300000001L362.72236 118.0593700000001L475.4607 5.4468700000001L593.10108 118.0593700000001L1164.96094 665.48053L1282.60132 778.09303L1047.32199 998.6259712z" />
    <glyph glyph-name="account"
      unicode="&#xE002;"
      horiz-adv-x="1000.83984" d="M1000.84985 500.41992C1000.84985 776.3555799999999 776.3655900000001 1000.84985 500.4199200000001 1000.84985C224.4942700000001 1000.84985 1e-13 776.35558 1e-13 500.41992C1e-13 344.5842399999999 71.6415700000001 205.16496 183.6935100000001 113.3031899999999C185.1549700000001 111.88177 186.7365500000001 110.6505399999999 188.4182300000001 109.58948C274.0437700000002 41.10106 382.4921100000002 0 500.4199200000002 0C617.9273100000003 0 726.0152900000003 40.8107700000001 811.5107000000002 108.8687600000001C813.5827700000001 110.11 815.5147000000003 111.6215100000002 817.2664500000002 113.4032900000001C929.26834 205.25505 1000.84985 344.6443000000001 1000.84985 500.41992zM58.81876 500.41992C58.81876 743.93319 256.92667 942.0411 500.42993 942.0411C743.9331899999999 942.0411 942.0410999999998 743.93319 942.0410999999998 500.41992C942.0410999999998 368.90854 884.1933099999999 250.72047 792.6918999999998 169.73957C774.9141399999999 178.4983199999999 755.5948399999997 184.94476 734.9442099999998 188.8887C673.5228499999998 200.6204199999999 648.8882399999998 214.9146999999998 639.0383999999997 224.8245999999999C631.8412099999997 232.06183 631.5308999999997 237.81758 631.5308999999997 249.11887V251.5112600000001C657.8872299999997 278.1278500000001 678.3676899999998 312.0817700000001 691.5908999999997 351.0507000000001C736.5157799999997 370.2598900000001 746.4557099999997 446.1356900000001 746.4557099999997 468.5681000000001V469.4589900000001C746.4857399999997 482.6021200000001 746.5558099999997 517.5670500000001 723.8331099999996 540.31978C721.2905699999995 542.8623200000001 718.5478299999995 545.15461 715.6649499999996 547.1666200000001C741.8711299999995 641.27063 721.2505299999997 721.84112 657.2565999999997 771.1704000000001C580.2596799999997 830.5096800000001 459.8894299999997 826.2254 361.9215599999996 761.4306700000001C339.1588199999996 759.09834 319.8395199999996 748.4477 305.6653599999996 730.28956C269.2289599999997 683.6329500000002 277.6173399999996 600.56997 287.7874999999996 548.6481000000001C284.1138299999996 546.30576 280.6904099999996 543.5530100000001 277.5472699999997 540.40987C255.0648099999996 517.84733 255.2049499999997 482.9224400000001 255.2449899999996 469.7993300000001V468.5681000000001C255.2449899999996 446.2458000000001 265.1048399999996 370.96059 309.5192099999996 351.31096C322.7023799999996 312.4121000000001 343.1027599999996 278.48821 369.3289599999996 251.8816300000001V249.1188700000002C369.3289599999996 232.5923600000002 369.3289599999996 207.6174100000002 266.1558899999996 188.9287400000001C245.3250799999996 185.1549700000002 225.8255999999996 178.7886100000001 207.8676599999996 169.9998300000001C116.53642 250.9707200000001 58.81876 369.0586900000001 58.81876 500.41992zM263.45319 128.0479200000001C267.7875200000001 129.1890600000001 272.14187 130.2501200000001 276.6663900000001 131.0709400000001C409.7993900000001 155.1650100000001 428.1477200000001 202.0618600000002 428.1477200000001 249.11887V264.4541900000001C428.1477200000001 272.79252 424.6041800000001 280.73045 418.3779600000001 286.3260400000001C392.2718800000001 309.79949 371.8915200000001 344.43409 361.0306700000001 383.83345C357.5572000000001 396.4360400000001 346.2158700000001 405.19479 333.2028700000001 405.41501C324.0237 411.7513400000001 314.2239100000001 450.4800300000001 314.0637500000001 468.5681V470.0295599999999C313.9636500000001 495.04455 319.0987800000001 498.85836 319.3190000000001 499.00851C319.3190000000001 499.00851 320.0997800000001 499.40891 322.322 499.40891C331.38105 499.40891 339.92959 503.57307 345.49515 510.7102S353.04269 527.15663 350.8505 535.9354000000001C333.11278 606.94634 333.57324 670.49983 352.01166 694.11342C356.94659 700.43974 362.84248 703.1224199999999 371.69132 703.1224199999999C377.7173399999999 703.1224199999999 383.59321 704.99429 388.53815 708.43773C466.89643 763.21245 562.6320699999999 769.84908 621.34072 724.5938699999999C670.6900200000001 686.5558699999999 681.30062 620.63001 651.2506 538.9684299999999C647.9272800000001 529.93941 649.21857 519.8693499999999 654.72407 511.98147C660.22957 504.09359 669.2285599999999 499.3989 678.8481699999999 499.3989C679.4888099999998 499.3989 681.63095 499.35886 682.2015199999998 498.7782800000001C683.4928099999998 497.48699 687.6970099999999 491.5710800000001 687.6469599999998 469.5691V468.58812C687.4867999999998 450.5400900000001 677.7670899999998 412.0316200000001 668.6279599999998 405.4850800000001C668.5979299999998 405.4850800000001 668.5678999999998 405.4850800000001 668.5378699999998 405.4850800000001C655.2946399999998 405.4850800000001 643.7030599999998 396.64625 640.1895499999997 383.8835000000001C629.2886599999998 344.3039600000001 608.8081999999998 309.5392300000001 582.5119299999998 286.0257400000001C576.2756999999998 280.4401599999999 572.7021299999998 272.4722000000001 572.7021299999998 264.1238599999999V249.11887C572.7021299999998 202.82262 591.0304399999998 156.5063500000001 723.9031799999998 131.12099C728.4677399999998 130.2501200000001 732.8721399999998 129.1490200000001 737.2465099999998 127.96784C668.7480799999997 84.2641800000001 587.5369499999998 58.8187600000001 500.4199199999998 58.8187600000001C413.2528400000001 58.80875 331.9816500000001 84.2942099999999 263.45319 128.0479200000001z" />
    <glyph glyph-name="add"
      unicode="&#xE003;"
      horiz-adv-x="1000.9799800000001" d="M500.47998 1001C224.50428 1001 0 776.4757 0 500.5S224.5243 0 500.5 0C776.4757 0 1001 224.5243000000001 1001 500.5S776.4556799999999 1001 500.47998 1001zM500.47998 80.08C268.6684 80.08 80.08 268.68842 80.08 500.5C80.08 732.3316 268.6684 920.92 500.5 920.92S920.92 732.3316 920.92 500.5C920.89998 268.68842 732.29156 80.08 500.47998 80.08zM740.7600199999999 540.54H540.5199799999999V740.65992C540.5199799999999 762.7620000000001 522.58206 780.69992 500.47998 780.69992S460.43998 762.762 460.43998 740.65992V540.54H260.26C238.15792 540.54 220.22 522.60208 220.22 500.5S238.15792 460.46 260.26 460.46H460.43998V260.1799200000001C460.43998 238.0778400000001 478.3779000000001 220.1399200000001 500.47998 220.1399200000001S540.51998 238.0778400000001 540.51998 260.1799200000001V460.46H740.76002C762.8621 460.46 780.8000200000001 478.39792 780.8000200000001 500.5S762.8620999999999 540.54 740.7600199999999 540.54z" />
    <glyph glyph-name="angel-bottom"
      unicode="&#xE004;"
      horiz-adv-x="1001" d="M0 728.189C0 747.9010000000001 7.5075 767.5745 22.5225 782.6279999999999C52.591 812.6965 101.3705 812.6965 131.439 782.6279999999999L500.6924999999999 413.567L869.5609999999999 782.6279999999999C899.5524999999999 812.6965 948.3705 812.6965 978.439 782.6279999999999S1008.5074999999998 703.8185 978.439 673.75L500.731 195.8109999999999L22.5225 673.7115C7.5075 688.7650000000001 0 708.4385 0 728.189z" />
    <glyph glyph-name="angel-left"
      unicode="&#xE005;"
      horiz-adv-x="609.3779999999999" d="M532.3779999999999 1001C552.09 1001 571.7635 993.4925 586.817 978.4775C616.8855 948.409 616.8855 899.6295 586.817 869.561L217.756 500.3075000000001L586.817 131.4390000000001C616.8855 101.409 616.8855 52.6295 586.817 22.561S508.0074999999999 -7.5074999999998 477.939 22.5225L0 500.2305L477.9005 978.439C492.954 993.4925 512.6274999999999 1001 532.3779999999999 1001z" />
    <glyph glyph-name="angel-right"
      unicode="&#xE006;"
      horiz-adv-x="609.3779999999999" d="M77 0C57.288 0 37.6145 7.5075000000001 22.561 22.5225C-7.5075 52.591 -7.5075 101.3705000000001 22.561 131.4390000000001L391.622 500.6925000000001L22.561 869.5225C-7.5075 899.591 -7.5075 948.332 22.561 978.439C52.6295 1008.5075 101.3705 1008.5075 131.4775 978.439L609.4165 500.731L131.4775 22.5609999999999C116.424 7.5075000000001 96.712 0 77 0z" />
    <glyph glyph-name="angel-top"
      unicode="&#xE007;"
      horiz-adv-x="1001" d="M1001 272.7725000000001C1001 253.0605000000001 993.4925 233.3870000000001 978.4775 218.3335C948.409 188.265 899.6294999999999 188.265 869.5609999999999 218.3335L500.3074999999999 587.3945L131.439 218.3335C101.409 188.265 52.6295 188.265 22.561 218.3335S-7.5075 297.1430000000001 22.5225 327.2115L500.2305 805.189L978.439 327.25C993.454 312.1965 1001 292.5229999999999 1001 272.7725000000001z" />
    <glyph glyph-name="arrow-left-long"
      unicode="&#xE008;"
      horiz-adv-x="4150.87966079658" d="M564.9981556656699 27.3600785888676L564.9981556656699 27.3600785888676C601.4686198311688 63.8401833740244 601.4686198311688 122.9902052845236 564.9981556656699 159.4703100696804L317.383660064624 407.0799853608974H4057.4765172418774C4109.068293340652 407.0799853608974 4150.889301416237 448.9058137463103 4150.889301416237 500.4927695352568V501.3411440651442C4150.889301416237 552.9329201639196 4109.068293340652 593.9103740194453 4057.4765172418774 593.9103740194453L320.5216817632416 593.9103740194453L568.1313570544586 841.5248696204911C604.6114618396152 878.0049744056478 604.6114618396152 937.154996316147 568.1313570544586 973.6302807914748L568.1265367446297 973.6351011013038C531.6512522693017 1010.1103855766316 472.5060506686315 1010.1103855766316 436.0259458834748 973.6351011013038L27.3697192085254 564.9836947361832C-9.1152058864603 528.5035899510266 -9.1152058864603 469.3535680405273 27.3697192085254 432.8686429455418L432.8879241848572 27.3552582790387C469.3680289700139 -9.1200261962891 528.5180508805132 -9.1200261962891 564.9981556656699 27.3600785888676" />
    <glyph glyph-name="arrow-left"
      unicode="&#xE009;"
      horiz-adv-x="1252.65765625" d="M489.70796875 17.98671875C514.29503125 -6.2562500000001 553.8970937500001 -5.9747187500001 578.17134375 18.643625C602.4143124999999 43.2619687499999 602.1327812500001 82.8953124999999 577.5144375 107.13828125L241.77278125 437.9375H1190.063875C1224.598375 437.9375 1252.626375 465.9655 1252.626375 500.5S1224.598375 563.0625 1190.063875 563.0625H241.77278125L577.5144375 893.86171875C602.13278125 918.1046875 602.4455937500001 957.73803125 578.17134375 982.32509375C565.940375 994.77503125 549.76796875 1001 533.62684375 1001C517.76725 1001 501.9076562500001 995.02528125 489.73925 983.01328125L0 500.5L489.70796875 17.98671875z" />
    <glyph glyph-name="arrow-right-long"
      unicode="&#xE00A;"
      horiz-adv-x="4150.87966079658" d="M3585.8911457505674 973.6399214111326L3585.8911457505674 973.6399214111326C3549.420681585068 937.1598166259759 3549.420681585068 878.0097947154766 3585.8911457505674 841.5296899303199L3833.5056413516127 593.9200146391029H93.4127841743594C41.821008075584 593.9200146391029 0 552.0941862536899 0 500.5024101549145V499.6540356250272C0 448.0622595262518 41.821008075584 407.0848056707262 93.4127841743594 407.0848056707262H3830.3627993431664L3582.7531240519493 159.4703100696802C3546.2730192667927 122.9902052845234 3546.2730192667927 63.8401833740243 3582.7531240519493 27.3648988986964L3582.7579443617783 27.3600785888675C3619.233228837106 -9.1152058864603 3678.378430437776 -9.1152058864603 3714.858535222933 27.3600785888675L4123.514761897883 436.0163052638169C4159.999686992868 472.4964100489735 4159.999686992868 531.6464319594728 4123.514761897883 568.1265367446294L3718.00137723138 973.6399214111326C3681.521272446223 1010.1200261962892 3622.371250535724 1010.1200261962892 3585.8911457505674 973.6399214111326" />
    <glyph glyph-name="arrow-right"
      unicode="&#xE00B;"
      horiz-adv-x="1252.65765625" d="M762.9496875 983.01328125C738.362625 1007.25625 698.7605625 1006.9434375 674.4863125 982.356375C650.2433437500001 957.73803125 650.524875 918.13596875 675.1432187500001 893.86171875L1010.85359375 563.0625H62.5625C28.028 563.0625 0 535.0345 0 500.5S28.028 437.9375 62.5625 437.9375H1010.85359375L675.14321875 107.13828125C650.524875 82.8953125000001 650.2120624999999 43.2619687500001 674.4863124999999 18.6749062500001C686.7172812499999 6.22496875 702.8896874999999 0 719.0308125 0C734.8904062500001 0 750.75 5.97471875 762.91840625 17.98671875L1252.65765625 500.5L762.9496875 983.01328125z" />
    <glyph glyph-name="basket"
      unicode="&#xE00C;"
      horiz-adv-x="1067.7333333333333" d="M533.8666666666667 133.4666666666667C551.6622222222222 133.4666666666667 567.2333333333333 149.0377777777778 567.2333333333333 166.8333333333334V400.4C567.2333333333333 418.1955555555557 551.6622222222222 433.7666666666667 533.8666666666667 433.7666666666667S500.5 418.1955555555557 500.5 400.4V166.8333333333334C500.5 149.0377777777778 516.0711111111111 133.4666666666667 533.8666666666667 133.4666666666667zM333.6666666666667 133.4666666666667C351.4622222222223 133.4666666666667 367.0333333333333 149.0377777777778 367.0333333333333 166.8333333333334V400.4C367.0333333333333 418.1955555555557 351.4622222222223 433.7666666666667 333.6666666666667 433.7666666666667S300.3 418.1955555555557 300.3 400.4V166.8333333333334C300.3 149.0377777777778 315.8711111111111 133.4666666666667 333.6666666666667 133.4666666666667zM734.0666666666666 133.4666666666667C751.8622222222222 133.4666666666667 767.4333333333333 149.0377777777778 767.4333333333333 166.8333333333334V400.4C767.4333333333333 418.1955555555557 751.8622222222222 433.7666666666667 734.0666666666666 433.7666666666667S700.6999999999999 418.1955555555557 700.6999999999999 400.4V166.8333333333334C700.6999999999999 149.0377777777778 716.2711111111112 133.4666666666667 734.0666666666666 133.4666666666667zM1034.3666666666666 567.2333333333333H967.6333333333334C967.6333333333334 567.2333333333333 967.6333333333334 567.2333333333333 967.6333333333334 567.2333333333333H934.2666666666667C934.2666666666667 731.8422222222223 823.0444444444444 876.4311111111111 665.1088888888888 920.92C656.2111111111111 965.4088888888888 616.171111111111 1001 567.2333333333333 1001H500.5C451.5622222222222 1001 411.5222222222222 965.4088888888888 402.6244444444445 920.92C244.6888888888889 876.4311111111111 133.4666666666667 731.8422222222223 133.4666666666667 567.2333333333333H102.3244444444444C102.3244444444444 567.2333333333333 102.3244444444444 567.2333333333333 102.3244444444444 567.2333333333333H33.3666666666667C15.5711111111111 567.2333333333333 0 551.6622222222222 0 533.8666666666667S15.5711111111111 500.5 33.3666666666667 500.5H73.4066666666667L166.8333333333333 26.6933333333334C171.2822222222222 11.1222222222223 184.6288888888889 0 200.2 0H867.5333333333333C883.1044444444444 0 896.451111111111 11.1222222222223 900.9 26.6933333333334L996.551111111111 500.5000000000001H1036.5911111111109C1054.3866666666665 500.5000000000001 1069.9577777777777 516.0711111111111 1069.9577777777777 533.8666666666668S1052.1622222222222 567.2333333333333 1034.3666666666666 567.2333333333333zM500.5 934.2666666666667H567.2333333333333C585.0288888888889 934.2666666666667 600.6 918.6955555555556 600.6 900.9C600.6 883.1044444444444 585.0288888888889 867.5333333333333 567.2333333333333 867.5333333333333H500.5C482.7044444444444 867.5333333333333 467.1333333333333 883.1044444444444 467.1333333333333 900.9C467.1333333333333 918.6955555555556 482.7044444444444 934.2666666666667 500.5 934.2666666666667zM411.5222222222222 854.1866666666667C429.3177777777778 823.0444444444445 462.6844444444445 800.8 500.5 800.8H567.2333333333333C605.0488888888889 800.8 638.4155555555556 823.0444444444445 656.2111111111111 854.1866666666667C780.78 816.3711111111111 867.5333333333333 700.7 867.5333333333333 567.2333333333333H200.2C200.2 700.7 286.9533333333333 816.3711111111111 411.5222222222222 854.1866666666667zM840.8399999999999 66.7333333333334H226.8933333333333L142.3644444444445 500.5H927.5933333333332L840.8399999999999 66.7333333333334z" />
    <glyph glyph-name="benefits-tick"
      unicode="&#xE00D;"
      horiz-adv-x="1223.4444444444446" d="M1117.761088888889 930.569195111111L478.2333111111112 72.0708877777778C468.0042033333334 58.3405044444444 452.3107477777777 49.735241111111 435.2336877777779 48.4940011111111C418.15774 47.252761111111 401.3843166666667 53.4978888888888 389.2777777777779 65.6044277777778L0 454.8822055555555L83.3647258888889 538.24771L424.424 197.18699L1023.2144144444446 1001L1117.761088888889 930.569195111111z" />
    <glyph glyph-name="cart"
      unicode="&#xE00E;"
      horiz-adv-x="1296.95566" d="M1291.1999099999998 810.1893799999999C1285.47419 818.14733 1276.2649899999997 822.87205 1266.44518 822.87205H309.8295200000001L271.0307600000001 977.90693C267.6373700000001 991.48049 255.4251700000001 1001.01001 241.43119 1001.01001H30.50047C13.65364 1001.01001 0 987.3463599999998 0 970.50954C0 953.6527 13.66365 939.99906 30.50047 939.99906H217.62741L384.4140300000001 273.5032299999999C387.8174300000001 259.92967 400.0296300000001 250.39014 414.0136000000001 250.39014H1095.96487C1109.09799 250.39014 1120.76965 258.80855 1124.9037799999999 271.2609899999999L1295.3840899999998 782.7119299999999C1298.4871899999998 792.01122 1296.93564 802.2314299999999 1291.1999099999998 810.1893799999999zM1073.9628899999998 311.40109H437.8173800000001L325.09477 761.8410799999999H1224.1228999999998L1073.9628899999998 311.40109zM476.55608 226.15593C414.19378 226.15593 363.4631 175.4252500000001 363.4631 113.06295C363.4631 50.70065 414.19378 -0.0400399999999 476.55608 -0.0400399999999C538.90837 -0.0400399999999 589.64906 50.6906400000001 589.64906 113.0629500000002C589.65907 175.4252499999999 538.91838 226.15593 476.55608 226.15593zM476.55608 60.97091C447.83739 60.97091 424.4740499999999 84.33425 424.4740499999999 113.0629499999999C424.4740499999999 141.76162 447.83739 165.1349699999999 476.55608 165.1349699999999C505.2747699999999 165.1349699999999 528.63811 141.76162 528.63811 113.0629499999999C528.63811 84.33425 505.2747699999999 60.97091 476.55608 60.97091zM1013.3623499999998 226.15593C951.0100599999998 226.15593 900.2993999999998 175.4252500000001 900.2993999999998 113.06295C900.2993999999998 50.70065 951.0100599999998 -0.0400399999999 1013.3623499999998 -0.0400399999999C1075.7346599999998 -0.0400399999999 1126.4553299999998 50.6906400000001 1126.4553299999998 113.0629500000002C1126.4553299999998 175.4252499999999 1075.73466 226.15593 1013.3623499999998 226.15593zM1013.3623499999998 60.97091C984.6636799999998 60.97091 961.3103499999997 84.33425 961.3103499999997 113.0629499999999C961.3103499999997 141.76162 984.6636799999998 165.1349699999999 1013.3623499999998 165.1349699999999C1042.0910499999998 165.1349699999999 1065.44438 141.76162 1065.44438 113.0629499999999C1065.44438 84.33425 1042.0910499999998 60.97091 1013.3623499999998 60.97091z" />
    <glyph glyph-name="close-bold"
      unicode="&#xE00F;"
      horiz-adv-x="688.1875" d="M474.5365625 500.5L670.18123046875 696.14466796875C694.1895898437499 720.15302734375 694.1895898437499 759.0786328125 670.18123046875 783.10654296875L626.7002929687499 826.58748046875C602.6919335937499 850.5958398437499 563.7663281249999 850.5958398437499 539.7384179687499 826.58748046875L344.09375 630.9428125L148.44908203125 826.5874804687501C124.44072265625 850.59583984375 85.5151171875 850.59583984375 61.48720703125 826.5874804687501L18.00626953125 783.10654296875C-6.00208984375 759.09818359375 -6.00208984375 720.172578125 18.00626953125 696.14466796875L213.6509375 500.5L18.00626953125 304.85533203125C-6.00208984375 280.8469726562501 -6.00208984375 241.9213671875 18.00626953125 217.89345703125L61.48720703125 174.4125195312499C85.49556640625 150.40416015625 124.44072265625 150.40416015625 148.44908203125 174.4125195312499L344.09375 370.0571875L539.73841796875 174.4125195312499C563.74677734375 150.40416015625 602.6919335937499 150.40416015625 626.70029296875 174.4125195312499L670.1812304687501 217.89345703125C694.18958984375 241.90181640625 694.18958984375 280.8274218750001 670.1812304687501 304.85533203125L474.5365625 500.5z" />
    <glyph glyph-name="close-bs-modal"
      unicode="&#xE010;"
      horiz-adv-x="1001" d="M124.5333563157895 981.8608273157894L967.4712623101842 138.9419946072053L862.1041171953738 33.5772336510137L19.166211200979 876.4960663595979L124.5333563157895 981.8608273157894zM19.1649352631579 138.9124578947369L862.1028412575527 981.8312906033212L967.4699863723632 876.4665296471296L124.5320803779685 33.5476969385453L19.1649352631579 138.9124578947369z" />
    <glyph glyph-name="close-filters"
      unicode="&#xE011;"
      horiz-adv-x="1001" d="M111.2286175 1001L1000.9931435087198 111.2354739912802L889.7724008041578 0.0147312867183L0.007874795438 889.7792572954381L111.2286175 1001.0000000000002zM0.02443846405 111.2236125L889.7889644727699 1000.9881385087198L1001.0097071773318 889.7673958041578L111.245181168612 0.0028697954381L0.0244384640501 111.2236125z" />
    <glyph glyph-name="close-simple"
      unicode="&#xE012;"
      horiz-adv-x="1001" d="M987.6836666666666 987.6836666666666C969.9083333333334 1005.459 941.122 1005.4438333333334 923.3466666666666 987.6836666666666L500.5 564.8521666666667L77.6836666666667 987.6836666666666C59.9235 1005.4438333333334 31.1068333333333 1005.4438333333334 13.3315 987.6836666666666C-4.4286666666667 969.9235 -4.4286666666667 941.1068333333334 13.3315 923.3315L436.1478333333333 500.5L13.3163333333333 77.6836666666667C-4.459 59.9083333333334 -4.459 31.1220000000001 13.3163333333333 13.3466666666667C22.204 4.4589999999999 33.852 0.0151666666668 45.5 0.0151666666668S68.796 4.4590000000002 77.6685 13.3466666666668L500.5 436.163L923.3163333333334 13.3315000000001C932.204 4.4438333333335 943.8671666666665 0 955.5 0S978.7808333333332 4.4438333333335 987.6684999999998 13.3315000000001C1005.4438333333331 31.0765000000001 1005.4438333333331 59.8931666666667 987.6684999999998 77.6685000000001L564.837 500.5L987.6684999999998 923.3011666666666C1005.4286666666666 941.1068333333334 1005.4286666666666 969.9083333333334 987.6836666666666 987.6836666666666z" />
    <glyph glyph-name="close"
      unicode="&#xE013;"
      horiz-adv-x="1000.9848333333332" d="M854.4141666666667 854.399C759.8955 948.9328333333332 634.1941666666667 1001 500.5151666666666 1001C366.821 1001 241.1196666666667 948.9328333333332 146.6161666666667 854.4141666666667C52.0671666666667 759.8803333333333 0 634.1790000000001 0 500.5C0 366.8058333333334 52.0671666666667 241.1348333333334 146.601 146.6161666666667C241.1196666666667 52.0671666666667 366.821 0 500.5151666666666 0C634.1941666666667 0 759.8954999999999 52.0671666666667 854.4141666666666 146.601C1049.5484999999999 341.7353333333333 1049.5484999999999 659.2495 854.4141666666667 854.399zM790.0771666666667 210.9531666666667C712.7271666666667 133.6031666666667 609.8971666666666 91.0151666666667 500.5151666666667 91.0151666666667C391.1331666666668 91.0151666666667 288.288 133.6183333333334 210.9531666666668 210.9531666666667C133.6031666666667 288.2880000000001 91 391.1331666666668 91 500.5C91 609.8820000000001 133.6031666666667 712.712 210.9531666666667 790.062C288.288 867.412 391.1331666666667 910 500.5151666666666 910C609.8971666666665 910 712.7271666666666 867.3968333333333 790.0771666666666 790.062C949.7215 630.3873333333333 949.7215 370.5975000000001 790.0771666666667 210.9531666666667zM704.2641666666667 704.2641666666666C686.4888333333333 722.0395 657.7025 722.0243333333333 639.9271666666667 704.2641666666666L500.5 564.8521666666667L361.0728333333334 704.2793333333334C343.3126666666667 722.0395 314.496 722.0395 296.7206666666667 704.2793333333334C278.9605 686.5191666666667 278.9605 657.7025 296.7206666666667 639.9271666666666L436.1478333333333 500.5L296.7358333333334 361.0880000000001C278.9605 343.3278333333334 278.9605 314.5263333333334 296.7358333333334 296.7510000000001C305.6235 287.8633333333335 317.2715 283.4195000000001 328.9195000000001 283.4195000000001C340.5675 283.4195000000001 352.2155 287.8633333333335 361.088 296.7510000000001L500.5 436.163L639.9119999999999 296.7510000000001C648.7996666666667 287.8633333333335 660.4476666666666 283.4195000000001 672.0805 283.4195000000001S695.3613333333333 287.8633333333335 704.249 296.7510000000001C722.0243333333333 314.5111666666667 722.0243333333333 343.3278333333334 704.249 361.0880000000001L564.837 500.5L704.2489999999999 639.8968333333335C722.0243333333333 657.6873333333333 722.0243333333333 686.4888333333333 704.2641666666667 704.2641666666666z" />
    <glyph glyph-name="delete"
      unicode="&#xE014;"
      horiz-adv-x="875.875" d="M844.59375 875.875H625.625V908.65775C625.625 959.583625 584.208625 1001 533.28275 1001H342.59225C291.666375 1001 250.25 959.583625 250.25 908.65775V875.875H31.28125C14.014 875.875 0 861.861 0 844.59375S14.014 813.3125 31.28125 813.3125H86.80546875L131.9443125 105.621140625C135.760625 45.404734375 181.9943125 0 239.45796875 0H636.370109375C692.94225 0 739.160296875 45.20140625 743.9306875 105.621140625L789.0382500000001 813.3125H844.59375C861.861 813.3125 875.875 827.3265 875.875 844.59375S861.861 875.875 844.59375 875.875zM312.8125 908.65775C312.8125 925.08040625 326.16959375 938.4375 342.59225 938.4375H533.2827500000001C549.70540625 938.4375 563.0625 925.08040625 563.0625 908.65775V875.875H312.8125V908.65775zM681.52459375 110.063078125C679.663359375 86.461375 663.56915625 62.5625 636.38575 62.5625H239.45796875C215.05859375 62.5625 196.117796875 82.347890625 194.3816875 109.593859375L149.49309375 813.3125H726.334984375L681.52459375 110.063078125zM437.9375 692.332265625C420.67025 692.332265625 406.65625 678.318265625 406.65625 661.051015625V218.96875C406.65625 201.7015 420.67025 187.6875 437.9375 187.6875S469.21875 201.7015 469.21875 218.96875V661.051015625C469.21875 678.33390625 455.20475 692.332265625 437.9375 692.332265625zM279.325921875 692.2540625C262.089953125 691.03409375 249.108234375 676.0660156250001 250.3282031250001 658.8456875L281.609453125 216.7477812500001C282.7825 200.278203125 296.51496875 187.6875 312.78121875 187.6875C313.5163281250001 187.6875 314.267078125 187.71878125 315.0178281250001 187.7657031250001C332.2537968750001 188.9856718750001 345.235515625 203.9381093750001 344.0155468750001 221.18971875L312.7342968750001 663.2719843750001C311.514328125 680.4923125 296.4836875 693.520953125 279.325921875 692.2540625zM563.1407031250001 663.25634375L531.8594531250001 221.1740781249999C530.6394843749999 203.9224687499999 543.6212031250001 188.97003125 560.8571718750001 187.7500625C561.607921875 187.71878125 562.358671875 187.6875 563.09378125 187.6875C579.36003125 187.6875 593.108140625 200.278203125 594.265546875 216.74778125L625.546796875 658.8456874999999C626.7667656250001 676.0816562499999 613.785046875 691.0340937499999 596.549078125 692.2540624999999C579.3131093750001 693.364546875 564.360671875 680.4923125 563.1407031250001 663.25634375z" />
    <glyph glyph-name="delivery"
      unicode="&#xE015;"
      horiz-adv-x="1527.8772280701755" d="M1499.2170175438598 521.0117192982457L1407.0547719298247 568.2167719298245L1253.7085964912283 769.5055789473685C1243.698596491228 782.5712631578948 1228.2094385964913 790.2631578947369 1211.7719649122807 790.2631578947369H1133.4481052631581C1140.613157894737 818.6423859649124 1146.3732982456143 841.0156140350878 1149.4641052631582 852.1495438596493C1155.5754736842107 874.1012982456141 1169.8704561403513 925.4508421052632 1140.2619298245615 964.4020350877194C1121.7873333333334 988.6718947368422 1092.6705263157896 1001.0000000000002 1053.7193333333335 1001.0000000000002H368.8245964912282C339.7077894736843 1001.0000000000002 316.1403859649124 977.4325964912282 316.1403859649124 948.3157894736842S339.7429122807018 895.6315789473686 368.8245964912281 895.6315789473686H1051.6470877192983C1050.8743859649123 891.7680701754387 1049.680210526316 886.7806315789475 1047.9240701754386 880.3882807017545C1032.0485614035088 823.2785964912282 953.1978596491228 500.3243859649124 949.8611929824561 486.6264912280702C946.0328070175437 470.9265964912282 949.6153333333332 454.3135087719299 959.5902105263158 441.5990526315791C969.5650877192982 428.9197192982457 984.8786315789474 421.4736842105264 1001.0351228070176 421.4736842105264H1266.2474385964913C1274.360807017544 421.4736842105264 1282.4039298245616 423.3703157894737 1289.7094736842107 426.9879649122808L1371.9670877192982 467.8357894736843L1422.5088070175439 441.9502807017544V263.421052631579H1258.7662807017546C1253.8490877192983 281.5092982456141 1245.8410877192982 298.3331228070176 1234.6017894736842 313.014456140351C1207.2411228070177 349.0153333333334 1165.3044912280702 368.7894736842105 1116.518912280702 368.7894736842105C1045.605964912281 368.7894736842105 974.6930175438598 325.7289122807018 932.9320000000002 263.350807017544H626.5206315789475C621.6034385964913 281.4741754385966 613.5603157894737 298.2628771929825 602.3561403508774 312.9793333333335C574.9954736842105 348.9802105263159 533.0237192982456 368.7894736842105 484.2381403508772 368.7894736842105C413.3954385964913 368.7894736842105 342.4824912280703 325.7289122807018 300.7214736842106 263.350807017544H158.0877543859649C128.9709473684211 263.350807017544 105.4035438596492 239.7482807017544 105.4035438596492 210.6665964912281S128.9709473684211 157.9823859649124 158.0877543859649 157.9823859649124H263.8425263157896C261.7351578947369 119.8741403508773 271.815403508772 83.9786315789474 293.2754385964913 55.7750175438597C320.6712280701755 19.8092631578947 362.6078596491228 0 411.3934385964913 0C500.6756140350877 0 589.7119298245615 68.5597192982456 620.5848771929825 157.9823859649124H896.053052631579C893.9105614035088 119.8741403508773 903.990807017544 84.0137543859651 925.4859649122808 55.7750175438597C952.8817543859652 19.8092631578947 994.85350877193 0 1043.6039649122808 0C1132.99150877193 0 1222.0278245614036 68.5948421052632 1252.8305263157897 158.0526315789474H1422.4736842105265C1487.486 158.0526315789474 1527.8421052631581 198.4087368421053 1527.8421052631581 263.3859298245614V474.1227719298246C1527.8772280701755 493.8969122807018 1516.8135438596494 511.9851578947369 1499.2170175438598 521.0117192982457zM523.6459298245614 198.4087368421053C509.9480350877193 148.8504561403509 457.5096842105264 105.3684210526316 411.4285614035088 105.3684210526316C400.7512280701755 105.3684210526316 386.1050175438597 107.8270175438597 377.148701754386 119.5931578947369C368.2626315789474 131.2539298245615 366.4011228070176 149.7636491228071 372.0910175438597 170.3807368421054C385.7537894736843 219.9741403508773 438.1570175438597 263.421052631579 484.2381403508772 263.421052631579C494.9505964912281 263.421052631579 509.5968070175439 260.9624561403509 518.5882456140351 249.1611929824562C527.4743157894737 237.5004210526316 529.3007017543861 218.9555789473685 523.6459298245614 198.4087368421053zM1043.6390877192982 105.3684210526316C1032.9266315789475 105.3684210526316 1018.3155438596492 107.8270175438597 1009.3241052631578 119.5931578947369C1000.4380350877192 131.2539298245615 998.611649122807 149.7636491228071 1004.301543859649 170.3807368421054C1017.9643157894737 219.9741403508773 1070.4026666666668 263.421052631579 1116.518912280702 263.421052631579C1127.2313684210528 263.421052631579 1141.842456140351 260.9624561403509 1150.8338947368422 249.1963157894737C1159.7199649122808 237.5355438596491 1161.5814736842106 219.0258245614034 1155.8915789473683 198.4087368421052C1142.228807017544 148.8153333333334 1089.7553333333335 105.3684210526316 1043.6390877192982 105.3684210526316zM1253.8490877192983 526.8069824561404H1068.154807017544C1078.7267719298247 569.9729122807018 1093.1973684210527 628.6982456140352 1107.1060000000002 684.8947368421053H1185.675719298246L1291.781719298246 545.6679298245615L1253.8490877192983 526.8069824561404zM158.0877543859649 684.8244912280702H737.6140701754388C766.695754385965 684.8244912280702 790.2982807017545 708.3918947368421 790.2982807017545 737.508701754386S766.695754385965 790.1929122807019 737.6140701754388 790.1929122807019H158.087754385965C128.9709473684211 790.1929122807019 105.4035438596492 766.6255087719298 105.4035438596492 737.508701754386S129.0060701754386 684.8244912280702 158.0877543859649 684.8244912280702zM684.9298596491229 526.7718596491229C684.9298596491229 555.8886666666667 661.362456140351 579.4560701754386 632.2456491228071 579.4560701754386H52.6842105263158C23.5674035087719 579.4560701754386 0 555.8886666666667 0 526.7718596491229S23.5674035087719 474.0876491228071 52.6842105263158 474.0876491228071H632.2456491228071C661.3624561403509 474.0876491228071 684.9298596491229 497.6550526315791 684.9298596491229 526.7718596491229z" />
    <glyph glyph-name="edit"
      unicode="&#xE016;"
      horiz-adv-x="988.0697127896158" d="M978.818005457155 856.0039588032112L855.9881709067395 978.8495812500986C850.0677097298235 984.7700424270143 842.0316704256896 988.1012885825592 833.6640852956484 988.1012885825592S817.2604608614733 984.7700424270143 811.3399996845575 978.8495812500986L792.5524028831443 960.0619844486854L785.8741226755832 966.7402646562466C763.8184313045125 988.827531820261 734.4687317634813 1001 703.2560604387805 1001H703.2402725423087C672.0276012176081 1001 642.7094774695204 988.8591076132044 620.6537860984496 966.787628345662L396.6393230604231 742.788953204107L441.287494282605 698.1407819819251L665.3019573206316 922.1236692270082C675.4219989590398 932.2594987618882 688.9048625459363 937.8484141128968 703.2402725423087 937.8484141128968C703.2402725423087 937.8484141128968 703.2402725423087 937.8484141128968 703.2560604387805 937.8484141128968C717.5756825386811 937.8484141128968 731.0585461255777 932.2594987618882 741.1943756604577 922.1078813305364L747.8884437644906 915.4296011229752L146.2274971215873 313.7370786871284C140.3070359446714 307.8166175102124 136.9757897891267 299.7805782060786 136.9757897891267 291.4129930760373C136.9757897891267 285.7451382426698 138.6177310221914 280.2667381669636 141.4595523871111 275.4514297430721L51.3738151191584 185.3499045786476C39.0434679747015 173.0195574341907 39.0434679747015 153.0320805009226 51.3738151191584 140.7017333564657L73.6979007302494 118.3618598489029L0 44.6481712221818L44.6639591186537 -1e-13L118.3618598489031 73.7136886267209L140.6701575635223 51.38960301563C146.5906187404382 45.469141838714 154.6266580445721 42.1378956831694 163.010031071085 42.1378956831694C171.3776162011261 42.1378956831694 179.41365550526 45.469141838714 185.3499045786477 51.38960301563L275.4356418466004 141.4753402835826C280.3772534422661 138.570367332776 285.8872293109159 137.0073655820701 291.4287809725092 137.0073655820701C299.5121839660584 137.0073655820701 307.5955869596076 140.0860053940663 313.7528665836001 146.2590729145306L978.8337933536268 811.3557875810292C991.148352601612 823.6861347254862 991.148352601612 843.6893995552261 978.818005457155 856.0039588032112zM162.9942431746132 118.3776477453747L118.3460719524313 163.0258189675567L185.3183287857042 229.9980758008295L207.6582022932669 207.6739901897386L229.9822879043579 185.3499045786476L162.9942431746132 118.3776477453747zM291.4129930760374 213.2313297478037L213.2313297478037 291.4287809725093L588.5096288819141 666.7070801066196L666.6912922101477 588.5096288819141L291.4129930760374 213.2313297478037zM711.323675535858 633.1578001040959L633.157800104096 711.3552513288014L833.6640852956485 911.8773244168256L911.8457486238822 833.6798731921202L711.323675535858 633.1578001040959z" />
    <glyph glyph-name="expand"
      unicode="&#xE017;"
      horiz-adv-x="1638" d="M819 18.2000000000041L0 837.2000000000041L163.7999999999959 1001L819 345.7999999999959L1474.2000000000041 1001L1638 837.2000000000041z" />
    <glyph glyph-name="facebook"
      unicode="&#xE018;"
      horiz-adv-x="465.1192738413132" d="M465.1399946179801 676.8648906000951H306.729656999731V780.7588648077998C306.729656999731 819.7553664948559 332.5684655033224 828.8725082282804 350.7613074168375 828.8725082282804H462.5706183112878V1000.3783766999939L308.6152476764164 1001C137.7102817280424 1001 98.8173839243205 873.069924858722 98.8173839243205 791.2021362479041V676.8648906000951H0.0207207766669V500.1373864083297H98.8173839243205V0H306.7503777763978V500.1581071849966H447.0093150344657L465.1399946179801 676.8648906000951z" />
    <glyph glyph-name="filters"
      unicode="&#xE019;"
      horiz-adv-x="938.4375" d="M419.612318125 31.28125H328.453125V504.746116875L0 895.7623675V969.71875H891.515625V896.184664375L578.703125 505.169039375V190.37143125L419.612318125 31.28125zM391.015625 93.84375H393.700181875L516.140625 216.28481875V527.112210625L820.17560625 907.15625H72.142695625L391.015625 527.535133125V93.84375z" />
    <glyph glyph-name="info-circle"
      unicode="&#xE01A;"
      horiz-adv-x="1001" d="M496.3533575 659.00835C526.2991066666667 659.00835 550.5741908333334 683.2834341666667 550.5741908333334 713.2291833333334C550.5741908333334 743.1740983333334 526.2991066666667 767.4500166666667 496.3533575 767.4500166666667C466.4084425 767.4500166666667 442.1325241666667 743.1740983333334 442.1325241666667 713.2291833333334C442.1325241666667 683.2834341666667 466.4084425 659.00835 496.3533575 659.00835zM393.1043783333334 536.2615591666666C393.1043783333334 556.00545 409.1103683333334 572.01144 428.8542591666668 572.01144H500.354855C520.0995800000001 572.01144 536.1047358333334 556.00545 536.1047358333334 536.2615591666666V321.7731183333333H608.1517108333334C627.8956016666667 321.7731183333333 643.9015916666667 305.7671283333333 643.9015916666667 286.0232375000001C643.9015916666667 266.2793466666666 627.8956016666667 250.2733566666666 608.1517108333334 250.2733566666666H501.275775C500.9696358333334 250.2658491666666 500.6626625 250.2616783333333 500.354855 250.2616783333333C500.0470475000001 250.2616783333333 499.7409083333334 250.2658491666666 499.4347691666667 250.2733566666666H393.6515916666667C373.9077008333333 250.2733566666666 357.9017108333334 266.2793466666666 357.9017108333334 286.0232375000001C357.9017108333334 305.7671283333333 373.9077008333333 321.7731183333333 393.6515916666667 321.7731183333333H464.6049741666666V500.5116783333333H428.8542591666668C409.1103683333334 500.5116783333333 393.1043783333334 516.5176683333334 393.1043783333334 536.2615591666666zM500.6226225 1001C367.8808466666667 1001 240.5778375 948.2688215 146.7149016666667 854.4077208333333C52.8538844166667 760.5456191666667 0.12219207 633.2409416666667 0.12219207 500.5C0.12219207 367.7590583333333 52.8536341666667 240.4552150000001 146.7149016666667 146.59645C240.5770033333334 52.7276749999999 367.8808466666667 0 500.6226225 0C633.36273 0 760.6682416666667 52.7276749999999 854.528675 146.59645C948.39745 240.4568833333333 1001.1167833333334 367.7615608333333 1001.1167833333334 500.5C1001.1167833333334 633.2392733333334 948.39745 760.5439508333334 854.528675 854.4077208333333C760.6674075000001 948.2688215 633.36273 1001 500.6226225 1001zM500.6226225 929.4999880833334C614.3996191666666 929.4999880833334 723.517795 884.3017516666666 803.9706675 803.8488791666666C884.4252083333333 723.3968408333333 929.6203583333335 614.2794991666667 929.6203583333335 500.5C929.6203583333335 386.721335 884.4252083333333 277.6039933333334 803.9715016666667 197.1519549999999C723.5186291666668 116.6999166666666 614.3996191666666 71.4964250000001 500.6226225 71.4964250000001C386.8447916666667 71.4964250000001 277.7274500000001 116.6999166666666 197.2737433333334 197.1511208333333C116.8208708333334 277.6039933333334 71.6222173333333 386.7221691666666 71.6222173333333 500.5C71.6222173333333 614.2778308333334 116.8208708333334 723.3951725 197.2729091666667 803.8488791666666C277.7266158333334 884.3017516666666 386.8439575 929.4999880833334 500.6226225 929.4999880833334zM0 1001H1001V0H0V1001z" />
    <glyph glyph-name="info-triangle"
      unicode="&#xE01B;"
      horiz-adv-x="1126.125" d="M1113.4502285156252 140.7402089843751C1149.537060546875 78.189439453125 1104.23985546875 0 1032.1639453125001 0H93.94932421875C21.734603515625 0 -23.353408203125 78.310654296875 12.663041015625 140.7402089843749L481.776216796875 954.107451171875C517.88064453125 1016.687546875 608.3088730468751 1016.57415234375 644.348783203125 954.107451171875L1113.4502285156252 140.7402089843749zM563.0625 308.90234375C513.3937402343751 308.90234375 473.12890625 268.637509765625 473.12890625 218.96875S513.3937402343751 129.03515625 563.0625 129.03515625S652.99609375 169.2999902343751 652.99609375 218.96875S612.7312597656249 308.90234375 563.0625 308.90234375zM477.678373046875 632.16669140625L492.181142578125 366.2760664062501C492.8595546875 353.8339492187501 503.14717578125 344.09375 515.6068886718749 344.09375H610.518111328125C622.9778242187499 344.09375 633.2654453124999 353.8339492187501 633.943857421875 366.2760664062501L648.446626953125 632.16669140625C649.17978125 645.6058984375 638.479638671875 656.90625 625.0208808593751 656.90625H501.1021640625001C487.6434062500001 656.90625 476.9452187500001 645.6058984375 477.6783730468751 632.16669140625z" />
    <glyph glyph-name="instagram"
      unicode="&#xE01C;"
      horiz-adv-x="1001" d="M500.5 910.82006640625C634.1413203124999 910.82006640625 649.9696328125 910.31174609375 702.7450117187501 907.90308984375C751.5398515625 905.67430078125 778.042890625 897.521625 795.6855156250001 890.67103125C819.0447890625001 881.5916484375 835.7176953125 870.74096484375 853.227375 853.23128515625C870.7448750000001 835.7176953125 881.5916484375001 819.04087890625 890.67103125 795.68160546875C897.52553515625 778.0428906249999 905.6782109375 751.5398515625 907.90308984375 702.74501171875C910.3117460937502 649.9696328125 910.8200664062502 634.1413203125 910.8200664062502 500.5S910.3117460937502 351.0303671875 907.90308984375 298.2549882812499C905.6782109375002 249.45623828125 897.5255351562502 222.9531992187499 890.67103125 205.3144843749999C881.5916484375001 181.9552109375 870.7448750000001 165.2823046875 853.227375 147.7648046874999C835.7176953125 130.25121484375 819.0447890625002 119.4044414062499 795.6855156250001 110.32896875C778.042890625 103.47446484375 751.5437617187501 95.3217890625 702.7450117187501 93.093C649.977453125 90.6882539062499 634.149140625 90.17993359375 500.5 90.17993359375C366.85476953125 90.17993359375 351.022546875 90.6882539062499 298.25498828125 93.093C249.4601484375 95.3217890625 222.957109375 103.47446484375 205.3223046875 110.32896875C181.95912109375 119.4044414062499 165.2823046875 130.2551249999999 147.76871484375 147.7648046874999C130.25903515625 165.27839453125 119.41226171875 181.9552109375 110.33287890625 205.3144843749999C103.478375 222.9531992187499 95.32569921875 249.452328125 93.1008203125 298.251078125C90.68825390625 351.0303671874999 90.17993359375 366.8586796875 90.17993359375 500.4999999999999S90.68825390625 649.9696328124999 93.1008203125 702.7450117187499C95.32569921875 751.5398515624998 103.478375 778.0428906249999 110.33287890625 795.6816054687499C119.41226171875 819.0408789062499 130.25903515625 835.7176953124999 147.76871484375 853.2312851562499C165.2823046875 870.7409648437499 181.95912109375 881.5916484374999 205.3223046875 890.6710312499999C222.957109375 897.5216249999999 249.4601484375 905.67430078125 298.25498828125 907.9030898437499C351.02645703125 910.31174609375 366.8586796875 910.82006640625 500.5 910.82006640625M500.5 1001C364.57123828125 1001 347.53077734375 1000.42520703125 294.1454140625 997.9891796875C240.8734453125 995.5570625 204.48553125 987.09939453125 172.6490390625 974.72375C139.73725390625 961.93362890625 111.83046875 944.818875 84.00188671875 916.994203125C56.181125 889.17344140625 39.06637109375 861.26274609375 26.27625 828.34705078125C13.904515625 796.51055859375 5.4429375 760.13046484375 3.0108203125 706.8545859375C0.5708828125 653.4731328125 0 636.42876171875 0 500.5C0 364.567328125 0.57479296875 347.5268671875 3.0108203125 294.1454140625C5.4429375 240.8734453125001 13.904515625 204.48944140625 26.27625 172.65294921875C39.06637109375 139.74507421875 56.181125 111.83046875 84.005796875 84.005796875C111.83046875 56.18503515625 139.7411640625 39.06637109375 172.65294921875 26.27625C204.48944140625 13.90060546875 240.8734453125 5.4429375 294.1454140625 3.0108203125001C347.5268671875 0.5708828124999 364.567328125 0 500.5 0S653.47704296875 0.5708828124999 706.8545859375 3.0108203125001C760.13046484375 5.4429375000001 796.51055859375 13.90060546875 828.34705078125 26.27625C861.2588359375 39.0663710937499 889.17344140625 56.181125 916.99811328125 84.005796875C944.818875 111.8304687500001 961.93362890625 139.7411640625001 974.72766015625 172.65294921875C987.09939453125 204.4933515625001 995.5570625 240.8734453125001 997.9891796875 294.1454140625C1000.42520703125 347.5268671875 1001 364.57123828125 1001 500.5C1001 636.42876171875 1000.4291171875 653.4731328125 997.9891796875 706.8545859375C995.5570625 760.13046484375 987.09939453125 796.51055859375 974.72766015625 828.34705078125C961.9375390625 861.26274609375 944.8227851562498 889.17344140625 916.9981132812497 916.994203125C889.16953125 944.818875 861.2588359375 961.93362890625 828.34705078125 974.72375C796.5066484375 987.09939453125 760.13046484375 995.5570625 706.8545859375 997.9891796875C653.4731328125 1000.42520703125 636.42876171875 1001 500.5 1001M500.5 757.51066015625C358.55741796875 757.51066015625 243.4854296875 642.44258203125 243.4854296875 500.5S358.55741796875 243.4854296875 500.5 243.4854296875C642.4425820312499 243.4854296875 757.5145703125 358.55741796875 757.5145703125 500.5S642.4425820312499 757.51066015625 500.5 757.51066015625M500.5 333.66536328125C408.361078125 333.66536328125 333.66536328125 408.3610781250001 333.66536328125 500.5C333.66536328125 592.6350117187501 408.361078125 667.3346367187501 500.5 667.3346367187501S667.3346367187501 592.638921875 667.3346367187501 500.5C667.3307265625 408.3610781250001 592.63501171875 333.66536328125 500.5 333.66536328125M827.72924609375 767.66924609375C827.72924609375 734.4993906249999 800.8391015625 707.60924609375 767.66924609375 707.60924609375C734.50330078125 707.60924609375 707.6092460937499 734.4993906249999 707.6092460937499 767.66924609375S734.5033007812499 827.72924609375 767.66924609375 827.72924609375C800.8391015625 827.72924609375 827.72924609375 800.8391015625 827.72924609375 767.66924609375" />
    <glyph glyph-name="lang-switcher"
      unicode="&#xE01D;"
      horiz-adv-x="312.61223278836997" d="M54.6289876797677 792.2688121672054L125.044893115348 871.547274402336V594.2133320841335C125.044893115348 576.9571368342156 139.049921144267 562.9521088052966 156.306116394185 562.9521088052966S187.567339673022 576.9571368342156 187.567339673022 594.2133320841335V871.6723192954514L257.9676144969629 792.3000733904842C264.1573367061726 785.3288205993035 272.722911884574 781.7806717571556 281.3666401211724 781.7806717571556C288.7442888149779 781.7806717571556 296.1375681204229 784.375353289299 302.0928311550413 789.6585000234224C315.003716369201 801.1157383551163 316.1916428537968 820.8728314673413 304.7344045221031 833.7837166815009L156.4155306756609 1001L7.8934588779063 833.7993472931403C-3.5794100654268 820.8884620789806 -2.4071141924704 801.1313689667556 10.5037710216892 789.6741306350619C23.3833950125701 778.2168923033681 43.1561187364345 779.3735575646851 54.6289876797677 792.2688121672054zM257.967614496963 208.7155572211551L187.567339673022 129.3276807045486V406.6147311878327C187.567339673022 423.8709264377508 173.562311644103 437.8759544666698 156.306116394185 437.8759544666698S125.044893115348 423.8709264377508 125.044893115348 406.6147311878327V129.452725597664L54.6289876797677 208.7155572211551C43.1717493480739 221.6420730469541 23.3833950125701 222.7987383082713 10.5037710216892 211.3258693649381C-2.4071141924704 199.8686310332444 -3.5794100654268 180.1115379210193 7.8934588779063 167.2006527068596L156.4155306756609 0L304.7344045221031 167.2162833184991C316.1916428537969 180.1271685326588 315.003716369201 199.8998922565232 302.0928311550413 211.3414999765776C289.1663153292423 222.8143689199106 269.4248528286567 221.6108118236754 257.967614496963 208.7155572211551z" />
    <glyph glyph-name="localize"
      unicode="&#xE01E;"
      horiz-adv-x="1001.7924748432258" d="M876.6648680180837 625.638034125711C807.6569928540179 625.638034125711 751.5372611929415 569.5183024646348 751.5372611929415 500.5104273005688S807.6569928540179 375.3828204754266 876.6648680180837 375.3828204754266S1001.7924748432258 431.5025521365029 1001.7924748432258 500.5104273005688S945.6727431821496 625.638034125711 876.6648680180837 625.638034125711zM876.6648680180837 437.9466238879977C842.1713577366194 437.9466238879977 814.1010646055125 466.0169170191047 814.1010646055125 500.5104273005688S842.1713577366194 563.07423071314 876.6648680180837 563.07423071314S939.2286714306548 535.003937582033 939.2286714306548 500.5104273005688S911.158378299548 437.9466238879977 876.6648680180837 437.9466238879977zM584.9507073064021 460.3027563074231C590.8108502260463 472.523552574012 594.3561324194254 486.0581887122648 594.3561324194254 500.5104273005688C594.3561324194254 552.250692722765 552.250692722765 594.3561324194254 500.5104273005687 594.3561324194254S406.6647221817122 552.250692722765 406.6647221817122 500.5104273005688S448.7701618783725 406.6647221817122 500.5104273005687 406.6647221817122C514.9418112877352 406.6647221817122 528.4973020271256 410.2100043750912 540.7180982937144 416.0701472947353L633.2499635409072 323.5591366486804C595.0860434592388 294.7797870788976 548.9765203441739 278.9719994166547 500.3435904914686 278.9719994166547C378.1981916289923 278.9719994166547 278.8051626075544 378.3441738369551 278.8051626075544 500.4895726994314S378.1981916289923 722.0071459822082 500.3435904914686 722.0071459822082C561.6561178357882 722.0071459822082 620.778912060668 696.2517135773664 662.5506781391279 651.3309027271403C674.3335277818288 638.6721598366635 694.1036896602012 637.9839579991251 706.7624325506781 649.725098439551C719.4003208400176 661.4870934811142 720.1302318798308 681.2989645617617 708.3682368382674 693.9368528511012C654.8136211171065 751.5372611929417 578.9862913810704 784.5709493947792 500.322735890331 784.5709493947792C343.662972145253 784.5709493947792 216.2205045938457 657.1284818433719 216.2205045938457 500.4895726994314S343.662972145253 216.4081960040836 500.322735890331 216.4081960040836C565.7227650576053 216.4081960040836 627.6609304360508 238.4723640075837 677.8996645763453 278.867726410967L787.0109377278693 169.7773078605806C707.4089251859414 100.665159690827 606.9940207087648 62.5429488114336 500.5104273005687 62.5429488114336C259.0141461280444 62.5429488114336 62.5638034125711 259.0141461280444 62.5638034125711 500.4895726994313S259.0141461280444 938.4361965874288 500.5104273005687 938.4361965874288C651.7062855476156 938.4361965874288 790.2434009041855 862.0457926206795 871.0758349132273 734.0819600408342C880.3352778182879 719.46288464343 899.6883476739098 715.1251276068251 914.224004666764 724.3428613096106C928.843080064168 733.5605950123961 933.2016917019104 752.8928102668806 923.983957999125 767.4910310631471C831.5980749598949 913.7026396383258 673.2907977249525 1001 500.5104273005687 1001C224.5206358465801 1001 0 776.4793641534199 0 500.5104273005688C0 224.5414904477177 224.5206358465801 1e-13 500.5104273005687 1e-13C634.2092751932332 1e-13 759.8999562490885 52.0530844392594 854.454717806621 146.5869913956541C866.6755140732098 158.807787662243 866.6755140732098 178.5988041417529 854.454717806621 190.8196004083419L584.9507073064021 460.3027563074231zM469.2285255942832 500.5104273005688C469.2285255942832 517.757182441301 483.2636721598367 531.7923290068543 500.5104273005687 531.7923290068543S531.7923290068543 517.757182441301 531.7923290068543 500.5104273005688C531.7923290068543 492.1894414466968 528.476447425988 484.6609304360508 523.1585241359195 479.0510427300569C522.9291235234067 478.8424967186817 522.6580137086189 478.7799329152691 522.4494676972437 478.5922415050314S522.1783578824559 478.1125856788684 521.9906664722182 477.8831850663556C516.3599241650868 472.5652617762871 508.8522677555783 469.2493801954208 500.5312819017063 469.2493801954208C483.2636721598366 469.2285255942833 469.2285255942832 483.2636721598367 469.2285255942832 500.5104273005688z" />
    <glyph glyph-name="meadow"
      unicode="&#xE01F;"
      horiz-adv-x="1001" d="M267.9793057971015 586.7252695652173C332.4567623188406 586.7252695652173 384.8438797101449 639.1123869565217 384.8438797101449 703.5883927536231C384.8438797101449 768.0658492753623 332.4567623188406 820.4529666666667 267.9793057971015 820.4529666666667C203.5033 820.4529666666667 151.1161826086957 768.0658492753623 151.1161826086957 703.5883927536231C151.1161826086957 637.0973304347826 203.5033 586.7252695652173 267.9793057971015 586.7252695652173zM267.9793057971015 778.1396811594203C310.2925913043478 778.1396811594203 344.5456507246377 743.8866217391305 344.5456507246377 701.573336231884C344.5456507246377 659.2615014492753 310.2925913043478 625.0084420289854 267.9793057971015 625.0084420289854C225.6674710144928 625.0084420289854 191.4129608695652 659.2615014492753 191.4129608695652 701.573336231884C191.4129608695652 743.8866217391305 225.6674710144928 778.1396811594203 267.9793057971015 778.1396811594203zM411.0396144927537 596.8020028985508L493.6496782608696 548.4449985507247C497.6797913043478 546.4299420289856 499.6948478260869 546.4299420289856 503.7235101449276 546.4299420289856C509.7686797101449 546.4299420289856 517.8289057971014 550.4600550724638 521.8575681159421 556.5037739130435C527.9027376811594 566.5790565217392 523.8726246376812 578.6679449275363 513.7987927536232 584.7131144927537L431.1872782608696 633.0701188405797C421.1134463768116 639.1152884057972 409.0245579710145 635.0851753623189 402.9793884057971 625.0113434782609C396.9342188405797 614.9360608695653 400.964331884058 600.8321159420291 411.0396144927537 596.8020028985508zM421.1119956521739 770.0896101449275C425.1421086956522 770.0896101449275 427.1571652173913 770.0896101449275 431.1872782608696 772.1046666666666L513.7973420289856 820.4616710144928C523.8726246376812 826.5068405797101 525.8876811594203 838.5957289855073 521.8575681159421 848.6710115942029C515.8123985507247 858.7449885507247 503.7235101449276 860.7599 493.6482275362319 856.7300771014493L411.038163768116 808.3727826086956C400.964331884058 802.3276130434783 398.9492753623188 790.2387246376811 402.9779376811594 780.1634420289855C407.0080507246377 774.1197231884058 413.0532202898551 770.0896101449275 421.1119956521739 770.0896101449275zM267.9807565217391 858.7452786956521C280.0696449275362 858.7452786956521 288.1298710144928 866.8047794202898 288.1298710144928 878.894248115942V975.6091272463768C288.1298710144928 987.6985379130434 280.0696449275362 995.7581256811594 267.9807565217391 995.7581256811594C255.891868115942 995.7581256811594 247.8316420289856 987.6985379130434 247.8316420289856 975.6091272463768V878.894248115942C247.8316420289856 866.8047794202898 255.891868115942 858.7452786956521 267.9807565217391 858.7452786956521zM247.8316420289856 530.3051376811594V433.5896782608695C247.8316420289856 421.5007898550724 255.891868115942 413.4405637681159 267.9807565217391 413.4405637681159C280.0696449275362 413.4405637681159 288.1298710144928 421.5007898550724 288.1298710144928 433.5896782608695V530.3051376811594C288.1298710144928 542.3940260869565 280.0696449275362 550.4542521739131 267.9807565217391 550.4542521739131C255.891868115942 550.4542521739131 247.8316420289856 540.3789695652174 247.8316420289856 530.3051376811594zM42.3125601449275 548.4609565217391L124.9232042028986 596.8179608695652C134.9977614492754 602.8631304347826 137.0126728985507 614.9520188405797 132.98285 625.0258507246376C126.9381156521739 635.1011333333333 114.8487920289855 637.1161898550724 104.7743798550725 633.0860768115942L22.1635907246377 582.7140159420289C12.0891495362319 576.6688463768116 10.0742235797101 564.5799579710146 14.1040174637681 554.5046753623188C18.133767826087 548.4609565217391 24.178502173913 544.4308434782608 32.2381479710145 544.4308434782608C34.2530594202899 546.4459 38.2827372463768 546.4459 42.3125601449275 548.4609565217391zM22.1625752173913 820.474727536232L104.7733643478261 772.1177231884058C108.803042173913 770.1026666666667 110.8179536231884 770.1026666666667 114.8477765217391 770.1026666666667C120.8925108695652 770.1026666666667 128.9521566666667 774.1313289855073 132.9818344927536 780.1764985507247C139.0265688405797 790.2517811594203 134.996745942029 802.3406695652175 124.9223337681159 808.3858391304348L42.3115446376812 856.7425533333333C32.2371324637681 862.7872876811595 20.1476637681159 858.7574647826086 14.1030164637681 848.6826173913043C8.0583256376812 838.6087855072464 12.0881485362319 826.5198971014493 22.1625752173913 820.474727536232zM987.2979057971012 209.9517710144928C942.9710144927536 248.2349434782609 894.6125594202898 282.4880028985508 844.2404985507246 308.6822869565217C844.2404985507246 308.6822869565217 844.2404985507246 308.6822869565217 842.2254420289855 308.6822869565217C818.0462144927536 320.7711753623189 793.8684376811594 332.860063768116 769.6892101449275 340.9202898550725V391.2923507246377V467.8586956521739C856.3293869565217 477.9325275362319 924.8369565217392 552.483815942029 924.8369565217392 643.1541057971015C924.8369565217392 669.3483898550725 918.7917869565218 697.556279710145 906.7028985507246 721.7355072463768C918.7917869565218 745.9147347826087 924.8369565217392 772.1075681159421 924.8369565217392 800.3169086956522C924.8369565217392 897.0313526086957 846.2555550724637 975.6123188405797 749.5400956521739 975.6123188405797C652.8260869565217 975.6123188405797 574.2446855072463 897.0313526086957 574.2446855072463 800.3169086956522C574.2446855072463 774.1226246376812 580.2898550724638 745.9147347826087 592.3787434782608 721.7355072463768C580.2898550724638 697.556279710145 574.2446855072463 671.3634463768116 574.2446855072463 643.1541057971015C574.2446855072463 552.483815942029 642.7508043478261 477.9325275362319 729.3909811594203 467.8586956521739V391.2923507246377V355.0242347826087C656.8547492753623 379.2034623188406 582.3049115942028 391.2923507246377 505.7385666666667 391.2923507246377C485.5894521739131 391.2923507246377 467.4553942028986 391.2923507246377 447.3062797101449 389.2772942028986C447.3062797101449 389.2772942028986 447.3062797101449 389.2772942028986 445.2912231884058 389.2772942028986C290.1449275362319 377.1884057971015 141.0420605797101 314.7260057971015 24.1782120289855 209.9517710144928C16.1185662318841 201.8929956521739 14.1037128115942 189.8026565217392 22.1633005797101 181.7438811594203C30.2229463768116 173.6836550724638 42.31227 171.6685985507247 50.3719157971014 179.7288246376812C147.0875202898551 264.3539449275363 263.9506434782609 320.7711753623189 388.8739927536232 342.9353463768116L163.2065217391304 113.2363115942029C155.1462956521739 105.1775362318841 155.1462956521739 93.0886478260869 163.2065217391304 85.0284217391305C167.235184057971 80.9983086956522 173.2803536231884 78.9832521739131 177.3104666666667 78.9832521739131C181.3405797101449 78.9832521739131 187.3842985507247 80.9983086956522 191.4144115942029 85.0284217391305L457.3801115942029 350.9941217391305C473.4991130434783 353.0091782608696 491.6331710144928 353.0091782608696 507.7536231884058 353.0091782608696C548.0504014492753 353.0091782608696 588.3486304347826 348.9790652173914 626.6318028985507 342.9353463768116L332.4567623188406 50.7753623188406C324.3979869565217 42.7151362318841 324.3979869565217 30.6262478260869 332.4567623188406 22.5660217391304C336.4868753623189 18.5373594202898 342.5320449275362 16.5223028985508 346.5607072463768 16.5223028985508C350.5908202898551 16.5223028985508 356.6359898550725 18.5373594202898 360.6661028985507 22.5660217391304L670.9601449275362 332.860063768116C715.287036231884 320.7711753623189 759.6153782608695 306.6672304347826 801.9272130434783 286.518115942029L552.0805144927537 34.6563608695653C544.0217391304348 26.5961347826086 544.0217391304348 14.5072463768116 552.0805144927537 6.4470202898551C556.1106275362318 2.4183579710146 562.1557971014493 0.4033014492754 566.1844594202898 0.4033014492754C570.2145724637681 0.4033014492754 576.2597420289856 2.4183579710146 580.2898550724638 6.4470202898551L840.2103855072464 266.3690014492754C882.5236710144927 242.1897739130435 924.8369565217392 213.981884057971 961.1050724637682 179.7288246376812C965.1337347826086 175.6987115942029 969.163847826087 173.6836550724638 975.2090173913044 173.6836550724638C981.2527362318842 173.6836550724638 987.2979057971012 175.6987115942029 989.3129623188406 179.7288246376812C997.3731884057972 189.8026565217392 997.3731884057972 203.908052173913 987.2979057971012 209.9517710144928zM751.555152173913 695.5412231884059C739.4662637681159 695.5412231884059 731.4060376811594 687.482447826087 731.4060376811594 675.3935594202899V512.1870376811594C666.9300318840579 522.2608695652174 616.5579710144928 578.6781000000001 616.5579710144928 645.1691623188406C616.5579710144928 669.3483898550725 622.6016898550724 693.5276173913044 634.6920289855072 713.6752811594204C634.6920289855072 715.6903376811595 634.6920289855072 715.6903376811595 636.7056347826087 717.7053942028986V719.7204507246377C636.7056347826087 721.7355072463768 636.7056347826087 723.750563768116 636.7056347826087 725.7656202898551V727.7806768115943C636.7056347826087 729.7957333333334 634.6920289855072 731.8093391304349 634.6920289855072 733.824395652174C634.6920289855072 733.824395652174 634.6920289855072 733.824395652174 634.6920289855072 735.8394521739131C626.6318028985507 751.9584536231885 620.5866333333333 768.0774550724639 618.5715768115942 786.2115130434782C608.4977449275362 862.778148115942 668.945088405797 935.31438 745.5099826086957 939.3442028985507C824.091384057971 943.3740257971014 888.5688405797101 880.9122060869565 888.5688405797101 804.3455710144927C888.5688405797101 780.1677942028986 882.5236710144927 755.9885666666667 870.4347826086956 735.8394521739131C870.4347826086956 733.824395652174 870.4347826086956 733.824395652174 868.4197260869565 731.8093391304349V729.7957333333334C868.4197260869565 727.7806768115943 868.4197260869565 725.7656202898551 868.4197260869565 723.750563768116V721.7355072463768C868.4197260869565 719.7204507246377 870.4347826086956 717.7053942028986 870.4347826086956 715.6903376811595C870.4347826086956 715.6903376811595 870.4347826086956 715.6903376811595 870.4347826086956 713.6752811594204C882.5236710144927 693.5276173913044 888.5688405797101 669.3483898550725 888.5688405797101 645.1691623188406C888.5688405797101 576.6630434782609 838.1953289855072 522.2608695652174 773.7193231884058 512.1870376811594V675.3935594202899C771.7042666666666 687.482447826087 761.6304347826086 695.5412231884059 751.555152173913 695.5412231884059z" />
    <glyph glyph-name="new-arrow-left"
      unicode="&#xE020;"
      horiz-adv-x="629.2" d="M114.111998 497.53418L626.33428 55.8386399999998L579.64192 1.69026L5.0654604 497.1537999999999L579.4560200000001 999.47412136L626.52304 945.652422L114.111998 497.53418z" />
    <glyph glyph-name="new-arrow-right"
      unicode="&#xE021;"
      horiz-adv-x="629.2" d="M517.47696 503.62884L5.2536198 945.32581L51.946466 999.47414138L626.52304 504.0092199999999L52.134082 1.69026L5.0654604 55.50974L517.47696 503.62884z" />
    <glyph glyph-name="new-cart"
      unicode="&#xE022;"
      horiz-adv-x="1137.5" d="M2.7618591 614.929315C-11.596767 672.363965 31.8429475 728 91.045045 728H1020.9927C1080.1973 728 1123.63615 672.36351 1109.27635 614.929315L972.77635 68.92795C962.64805 28.4193 926.2526 0 884.4927 0H227.545045C185.787875 0 149.38924 28.4193 139.26185 68.92795L2.7618591 614.929315zM1001 637H91.045045L227.545045 91H884.4927L1001 637zM447.70362 995.0703035C469.56 982.6738285 477.2313 954.90486 464.8371 933.046205L312.586365 664.5871050000001C300.18989 642.7289049999999 272.420785 635.05806 250.56213 647.4545350000001C228.703475 659.8510100000001 221.033085 687.6201149999999 233.42956 709.4787699999999L385.679385 977.93787C398.07586 999.79632935 425.844965 1007.4667785 447.70362 995.0703035zM616.9663499999999 995.0370885C638.80635 1007.465914 666.58865 999.83656955 679.0147000000001 977.996474L831.79005 709.537465C844.2206500000001 687.697465 836.5903000000001 659.916985 814.7503 647.488205C792.9103 635.0594249999999 765.1325499999999 642.68841 752.70195 664.528865L599.9266 932.987965C587.496 954.827965 595.12635 982.6083085 616.9663499999999 995.0370885z" />
    <glyph glyph-name="new-close"
      unicode="&#xE023;"
      horiz-adv-x="1001" d="M111.2286175 1001L1000.9931435087198 111.2354739912802L889.7724008041578 0.0147312867183L0.007874795438 889.7792572954381L111.2286175 1001.0000000000002zM0.02443846405 111.2236125L889.7889644727699 1000.9881385087198L1001.0097071773318 889.7673958041578L111.245181168612 0.0028697954381L0.0244384640501 111.2236125z" />
    <glyph glyph-name="new-remove"
      unicode="&#xE024;"
      horiz-adv-x="1001" d="M1001 500.5C1001 367.75739 948.26732 240.4552150000001 854.408555 146.591445C760.5447849999999 52.7326800000001 633.24261 0 500.5 0C367.759392 0 240.455215 52.7326800000001 146.5929465 146.591445C52.7311785 240.4552150000001 0 367.75739 0 500.5C0 633.2406080000001 52.7311785 760.544785 146.5929465 854.4070535000001C240.455215 948.2688215 367.759392 1001 500.5 1001C633.24261 1001 760.5447849999999 948.2688215 854.408555 854.4070535000001C948.26732 760.544785 1001 633.2406080000001 1001 500.5zM741.615875 697.321625C747.491745 703.1954929999999 750.79004 711.1619515 750.79004 719.46875C750.79004 727.7755485 747.491745 735.7420070000001 741.615875 741.615875C735.740005 747.489743 727.77705 750.7895395 719.46875 750.7895395C711.16045 750.7895395 703.1974949999999 747.489743 697.3216249999999 741.615875L500.5 544.7316874999999L303.678375 741.615875C300.7699695 744.5242805 297.31702 746.8315855000001 293.517224 748.4051575C289.717428 749.97923 285.644359 750.7895395 281.53125 750.7895395C277.418141 750.7895395 273.345072 749.97923 269.545276 748.4051575C265.74548 746.8315855000001 262.2925305 744.5242805 259.384125 741.615875C256.4757195 738.7074695 254.1684145 735.25452 252.5948425 731.454724C251.02077 727.654928 250.2104605 723.581859 250.2104605 719.46875C250.2104605 715.355641 251.02077 711.2825720000001 252.5948425 707.4827760000001C254.1684145 703.68298 256.4757195 700.2300305000001 259.384125 697.321625L456.2683125 500.5L259.384125 303.6783750000001C253.510257 297.8025050000001 250.2104605 289.8395500000001 250.2104605 281.53125C250.2104605 273.22295 253.510257 265.259995 259.384125 259.3841250000001C265.257993 253.508255 273.2244515 250.20996 281.53125 250.20996C289.8380485 250.20996 297.804507 253.508255 303.678375 259.3841250000001L500.5 456.2708150000001L697.3216249999999 259.3841250000001C700.22953 256.47622 703.6829799999999 254.1689150000001 707.481775 252.5923400000001C711.2805699999999 251.02077 715.3546399999999 250.20996 719.46875 250.20996C723.58286 250.20996 727.65693 251.02077 731.4557249999999 252.5923400000001C735.25452 254.1689150000001 738.7079699999999 256.47622 741.615875 259.3841250000001C744.52378 262.2920300000001 746.8310849999999 265.7454800000001 748.40766 269.5442750000001C749.97923 273.34307 750.79004 277.41714 750.79004 281.53125C750.79004 285.6453600000001 749.97923 289.7194300000001 748.40766 293.5182250000001C746.8310849999999 297.3170200000001 744.52378 300.7704700000001 741.615875 303.6783750000001L544.7291849999999 500.5L741.615875 697.321625z" />
    <glyph glyph-name="newsletter"
      unicode="&#xE025;"
      horiz-adv-x="1000.9687109277319" d="M1000.0926169042262 826.6572893223306C995.6808577144288 866.7698799699925 974.7171792948238 907.4143848462116 941.0501375343836 941.0501375343836C869.304294823706 1012.8272693173292 769.5234433608402 1019.8985996499126 705.443423355839 955.7872905726432L77.0649849962491 327.4401412853213L0.0312890722681 0L327.4401412853213 77.1275631407851L955.7872905726432 705.4747124281071C989.7359339834958 739.4233558389598 1005.0362903225808 781.3194236059014 1000.0926169042262 826.6572893223306zM896.8073893473368 896.7761002750688C920.4619279819954 873.1841397849462 935.0426356589148 845.8374906226557 937.8899412353088 819.86756064016C940.3930670167542 797.026537884471 933.4156039009752 776.2818829707427 918.2404038509628 757.8213303325831L757.8526194048511 918.1778257064266C798.0277881970492 950.562015503876 852.1265941485372 941.5507626906726 896.8073893473368 896.7761002750688zM149.5304763690923 311.420136284071L622.6525381345335 784.5421980495123L784.4796199049762 622.6838272068017L311.3575581395349 149.5304763690923L149.5304763690923 311.420136284071zM666.8952863215804 828.7849462365591L712.7963553388347 874.6860152538135L874.6860152538134 712.8589334833708L828.7223680920229 666.9265753938485L666.8952863215804 828.7849462365591zM122.9973430857715 249.4364841210303L249.4051950487622 122.9973430857715L84.1050262565641 84.0737371842961L122.9973430857715 249.4364841210303z" />
    <glyph glyph-name="out-of-stock"
      unicode="&#xE026;"
      horiz-adv-x="1117.7833333333333" d="M333.6666666666667 200.2000000000001C278.4615166666667 200.2000000000001 233.5666666666667 155.3051499999999 233.5666666666667 100.1S278.4615166666667 0 333.6666666666667 0S433.7666666666667 44.89485 433.7666666666667 100.1S388.8551333333334 200.2000000000001 333.6666666666667 200.2000000000001zM333.6666666666667 66.7333333333334C315.26495 66.7333333333334 300.3 81.6982833333333 300.3 100.1S315.26495 133.4666666666667 333.6666666666667 133.4666666666667S367.0333333333334 118.5017166666667 367.0333333333334 100.1S352.0683833333334 66.7333333333334 333.6666666666667 66.7333333333334zM817.4833333333333 200.2000000000001C762.2781833333333 200.2000000000001 717.3833333333333 155.3051499999999 717.3833333333333 100.1S762.2781833333333 0 817.4833333333333 0S917.5833333333334 44.89485 917.5833333333334 100.1S872.6884833333334 200.2000000000001 817.4833333333333 200.2000000000001zM817.4833333333333 66.7333333333334C799.0816166666666 66.7333333333334 784.1166666666667 81.6982833333333 784.1166666666667 100.1S799.0816166666666 133.4666666666667 817.4833333333333 133.4666666666667S850.85 118.5017166666667 850.85 100.1S835.8850500000001 66.7333333333334 817.4833333333333 66.7333333333334zM1117.7833333333333 700.7C1117.7833333333333 866.2820833333333 983.0654166666666 1001 817.4833333333333 1001C663.1791833333333 1001 535.8019333333333 883.9831 519.1352833333334 734.0666666666666H223.37315L165.91575 975.3577166666666C162.3288333333333 990.3894 148.9154333333334 1001 133.4666666666667 1001H33.3666666666667C14.9315833333333 1001 0 986.0517333333333 0 967.6333333333334S14.9482666666667 934.2666666666667 33.3666666666667 934.2666666666667H107.107L267.8342333333334 259.20895C271.42115 244.1772666666667 284.8345500000001 233.5666666666666 300.3 233.5666666666666H884.2166666666667C899.2149833333334 233.5666666666666 912.3781333333334 243.59335 916.3821333333332 258.0411166666667L966.8325333333333 440.5401C1056.8891666666666 492.4586333333334 1117.7833333333333 589.5055833333333 1117.7833333333333 700.7zM858.8246333333334 300.3H326.6429833333334L239.2556833333334 667.3333333333333H519.1352833333334C535.8019333333333 517.4168999999999 663.1791833333333 400.4 817.4833333333333 400.4C842.1579833333333 400.4 865.9984666666667 403.7199833333333 888.9547333333334 409.35895L858.8246333333334 300.3zM817.4833333333333 467.1333333333333C688.7213666666667 467.1333333333333 583.9667166666667 571.8546166666667 583.8999833333334 700.5998999999999C583.8999833333334 700.6332666666667 583.9166666666666 700.6666333333333 583.9166666666666 700.7S583.8999833333334 700.7667333333334 583.8999833333334 700.8000999999999C583.9667166666667 829.5453833333333 688.7213666666667 934.2666666666667 817.4833333333333 934.2666666666667C946.2786666666668 934.2666666666667 1051.05 829.4953333333333 1051.05 700.7S946.2786666666668 467.1333333333333 817.4833333333333 467.1333333333333zM941.1735666666668 824.3902333333333C928.1438833333334 837.4199166666667 907.0227833333335 837.4199166666667 893.9931 824.3902333333333L817.4833333333333 747.8804666666666L740.9735666666667 824.3902333333333C727.9438833333334 837.4199166666667 706.8227833333334 837.4199166666667 693.7931 824.3902333333333C680.7634166666667 811.36055 680.7634166666667 790.23945 693.7931 777.2097666666666L770.3028666666667 700.7L693.7931 624.1902333333334C680.7634166666667 611.1605500000001 680.7634166666667 590.03945 693.7931 577.0097666666667C700.3162833333333 570.4865833333333 708.8414666666666 567.2333333333333 717.3833333333333 567.2333333333333S734.4503833333334 570.4865833333333 740.9735666666667 577.0097666666666L817.4833333333333 653.5195333333334L893.9931 577.0097666666666C900.5162833333333 570.4865833333333 909.0414666666666 567.2333333333333 917.5833333333334 567.2333333333333S934.6503833333334 570.4865833333333 941.1735666666668 577.0097666666666C954.20325 590.03945 954.20325 611.1605500000001 941.1735666666668 624.1902333333333L864.6638 700.7L941.1735666666668 777.2097666666666C954.20325 790.23945 954.20325 811.36055 941.1735666666668 824.3902333333333z" />
    <glyph glyph-name="quote"
      unicode="&#xE027;"
      horiz-adv-x="1274.7109375" d="M487.1116249999999 907.0936875C539.163625 849.2859375 565.1896250000001 762.636875 565.1896250000001 647.1465000000001C565.1896250000001 413.16275 479.479 216.090875 308.1203125000001 56.2436875000001C274.5242500000001 23.648625 235.7980625000001 7.3198125 192.1294375000001 7.3198125C158.533375 7.3198125 128.2531250000001 18.393375 101.4138125000001 40.5405000000001C74.449375 62.8127500000001 60.9984375 88.7761875000001 60.9984375 118.3056875000001C60.9984375 150.9633125000002 74.449375 179.1164375000001 101.4138125000001 202.7650625000001C188.7510625 282.7825000000001 244.1814375 382.006625 267.7675000000001 500.5C193.818625 506.506 132.4448125 530.8428125 83.7711875 573.8232499999999C35.035 616.741125 10.635625 672.2340624999999 10.635625 740.4271875C10.635625 814.438625 36.661625 875.1868125 88.83875 922.6091875C140.8281875 970.0315625 205.5178125 993.74275 282.9701875 993.74275C366.8665 993.74275 434.9345 964.838875 487.1116249999999 907.0936875zM1185.9973125000001 907.0936875C1238.0493125 849.2859375 1264.0753125 762.636875 1264.0753125 647.1465C1264.0753125 413.16275 1178.4272500000002 216.090875 1007.0685625 56.2436875C973.4099375 23.6486249999999 934.7463125 7.3198124999999 891.0776875000001 7.3198124999999C857.4190625000001 7.3198124999999 827.1388125000001 18.3933749999999 800.2995000000001 40.5405C773.3976250000001 62.8127499999999 759.9466875000002 88.7761875 759.9466875000002 118.3056875C759.9466875000002 150.9633125 773.3976250000001 179.1164375 800.2995000000001 202.7650625C887.6993125000001 282.7825000000001 943.0671250000001 382.0691875 966.6531875 500.5625625C892.64175 506.5685625 831.3305 530.905375 782.6568750000001 573.8858124999999C733.8581250000001 616.8036875 709.5838750000001 672.296625 709.5838750000001 740.48975C709.5838750000001 814.5011874999999 735.6098750000002 875.2493749999999 787.7244375000001 922.6717499999997C839.7764375000003 970.0941249999998 904.4660625000002 993.8053124999998 981.8558750000002 993.8053124999998C1065.7521875 993.74275 1133.88275 964.838875 1185.9973125000001 907.0936875z" />
    <glyph glyph-name="remove"
      unicode="&#xE028;"
      horiz-adv-x="1000.9799800000001" d="M500.47998 0C224.50428 0 0 224.5243000000001 0 500.5S224.5243 1001 500.5 1001C776.4757 1001 1001 776.4757 1001 500.5S776.4556799999999 0 500.47998 0zM500.47998 920.92C268.6684 920.92 80.08 732.3316 80.08 500.5C80.08 268.68842 268.6684 80.08 500.5 80.08S920.92 268.68842 920.92 500.5C920.89998 732.3316 732.29156 920.92 500.47998 920.92zM740.7600199999999 460.46H260.26C238.15792 460.46 220.22 478.39792 220.22 500.5S238.15792 540.54 260.26 540.54H740.74C762.84208 540.54 780.78 522.60208 780.78 500.5S762.8620999999999 460.46 740.7600199999999 460.46z" />
    <glyph glyph-name="rounded-down"
      unicode="&#xE029;"
      horiz-adv-x="1557.1111111111113" d="M782.696358888889 379.7393600000001L1366.9656 968.14718L1524.8121777777778 811.4117122222221L783.8030200000001 65.1528655555554L32.851819 810.8578255555556L189.5916244444445 968.7005105555556L782.696358888889 379.7393600000001z" />
    <glyph glyph-name="rounded-left"
      unicode="&#xE02A;"
      horiz-adv-x="1000.9999999999999" d="M650.0493999999999 214.4142000000001L671.6709999999999 236.0357999999999C690.7900999999999 255.255 690.7900999999999 286.286 671.6709999999999 305.4051L511.2106999999999 465.7652999999999C501.7011999999999 475.2747999999999 496.8963999999999 487.8874 496.8963999999999 500.3998999999999S501.6011 525.4249 511.2106999999999 535.0345L671.6709999999999 695.4947999999999C690.7900999999999 714.7139999999999 690.7900999999999 745.7449999999999 671.6709999999999 764.8640999999999L650.0493999999999 786.4857C630.8302 805.6048 599.7991999999999 805.6048 580.6800999999999 786.4857L329.329 535.1346C319.8195 525.6251 315.0147 513.0124999999999 315.0147 500.4999999999999S319.7194 475.4749999999999 329.329 465.8653999999999L580.6800999999999 214.5142999999999C599.7991999999999 195.3952000000001 630.8302 195.3952000000001 650.0493999999999 214.4142000000001z" />
    <glyph glyph-name="rounded-right"
      unicode="&#xE02B;"
      horiz-adv-x="700.6999999999999" d="M358.936578 502.818316L29.5689394 829.86904L170.631461 971.9303594L642.063422 503.814311L171.128958 29.566537L29.0709419 170.632462L358.936578 502.818316z" />
    <glyph glyph-name="rounded-up"
      unicode="&#xE02C;"
      horiz-adv-x="1000.9999999999999" d="M786.4857 420.3199L535.2347 671.5708999999999C525.6251 681.1804999999999 513.1125999999999 685.8851999999999 500.6000999999999 685.8851999999999S475.475 681.0803999999998 465.9655 671.5708999999999L214.7145 420.3199C195.5954 401.2008 195.5954 370.1697999999999 214.7145 350.9506L236.3361 329.329C255.4552 310.2099 286.4862 310.2099 305.7054 329.329L466.0656 489.6891999999999C475.6752 499.2988 488.1876999999999 504.0034999999999 500.7001999999999 504.0034999999999S525.8252999999999 499.1986999999999 535.3347999999999 489.6891999999999L695.6949999999999 329.329C714.8140999999999 310.2099 745.8450999999999 310.2099 765.0642999999999 329.329L786.6859 350.9506C805.6047999999998 370.1697999999999 805.6047999999998 401.2008 786.4857 420.3199z" />
    <glyph glyph-name="scroll"
      unicode="&#xE02D;"
      horiz-adv-x="688.1875" d="M375.375 1001H312.8125C140.3276875 1001 0 860.6723125 0 688.1875V312.8125C0 140.3276875 140.3276875 0 312.8125 0H375.375C547.8598125 0 688.1875 140.3276875 688.1875 312.8125V688.1875C688.1875 860.6723125 547.8598125 1001 375.375 1001zM625.625 312.8125C625.625 174.83090625 513.35659375 62.5625 375.375 62.5625H312.8125C174.83090625 62.5625 62.5625 174.83090625 62.5625 312.8125V688.1875C62.5625 826.16909375 174.83090625 938.4375 312.8125 938.4375H375.375C513.35659375 938.4375 625.625 826.16909375 625.625 688.1875V312.8125zM344.09375 844.59375C292.338921875 844.59375 250.25 802.504828125 250.25 750.75V688.1875C250.25 636.432671875 292.338921875 594.34375 344.09375 594.34375S437.9375 636.432671875 437.9375 688.1875V750.75C437.9375 802.504828125 395.848578125 844.59375 344.09375 844.59375zM375.375 688.1875C375.375 670.935890625 361.3453593750001 656.90625 344.09375 656.90625C326.842140625 656.90625 312.8125 670.935890625 312.8125 688.1875V750.75C312.8125 768.001609375 326.842140625 782.03125 344.09375 782.03125C361.3453593750001 782.03125 375.375 768.001609375 375.375 750.75V688.1875z" />
    <glyph glyph-name="search"
      unicode="&#xE02E;"
      horiz-adv-x="1000.63964" d="M991.6206299999998 52.4023500000001L772.9822099999999 271.03076C840.3394999999998 348.43809 881.2503699999999 449.40896 881.2503699999999 559.82927C881.2503699999999 802.78198 683.59291 1000.44945 440.62018 1000.44945C197.65746 1000.44945 -0.01001 802.78198 -0.01001 559.82927C-0.01001 316.8665500000001 197.65746 119.20909 440.62018 119.20909C551.0605099999999 119.20909 652.0614099999999 160.1299699999999 729.4687399999999 227.5172899999999L948.08714 8.8788699999999C954.10315 2.8628599999998 961.97101 -0.1401400000001 969.85889 -0.1401400000001C977.72675 -0.1401400000001 985.59461 2.8728699999999 991.61062 8.8788699999999C1003.6526499999998 20.9008799999999 1003.6526499999998 40.39035 991.6206299999998 52.4023500000001zM61.5615 559.82927C61.5615 768.84808 231.6113800000001 938.8979599999998 440.6402 938.8979599999998C649.65901 938.8979599999998 819.70889 768.84808 819.70889 559.82927C819.70889 350.8104599999999 649.65901 180.7505699999999 440.6402 180.7505699999999C231.60137 180.7605799999999 61.5615 350.8104599999999 61.5615 559.82927z" />
    <glyph glyph-name="shopping-bag"
      unicode="&#xE02F;"
      horiz-adv-x="883.2352941176471" d="M763.7924411764707 723.8113235294118H695.2533823529412V739.6506764705882A261.3198823529412 261.3198823529412 0 1 1 172.6136176470589 739.6506764705882V723.8113235294118H104.104A104.0745588235294 104.0745588235294 0 0 1 1.6192647058824 601.5421176470588L89.2067647058824 108.2552058823529A104.0745588235294 104.0745588235294 0 0 1 191.6620588235294 22.3752941176469H676.1754999999999A104.0745588235294 104.0745588235294 0 0 1 778.630794117647 108.2552058823529L866.2477352941175 601.5421176470588A104.0745588235294 104.0745588235294 0 0 1 763.7924411764706 723.8113235294118zM272.419205882353 739.6506764705882A161.5437352941177 161.5437352941177 0 0 0 595.4772352941176 739.6506764705882V723.8113235294118H272.419205882353V739.6506764705882z" />
    <glyph glyph-name="star"
      unicode="&#xE030;"
      horiz-adv-x="1048.284521473005" d="M560.8710122750408 978.173563753701L691.119889557899 714.2626659126444C697.0637537008083 702.1751438741227 708.6184923987892 693.8004557399954 721.9380759123117 691.8524666511428L1013.1874189148732 649.5461395163169C1046.8027178071256 644.6511925750974 1060.1888992382158 603.3937826419615 1035.8806593260372 579.7015734672832L825.1315491833273 374.2802967299824C815.4748511360235 364.889990352949 811.079388576561 351.3040151691561 813.3603672532518 338.0343800938093L863.1090116762583 47.950500648681C868.8530820664648 14.5183460297394 833.7226805495493 -11.0053058780479 803.7036692059479 4.7950500648681L543.2059146402315 141.7536675426633C531.251588436845 148.0138717940188 517.0329330361599 148.0138717940188 505.0786068327734 141.7536675426633L244.580852267057 4.81169954426C214.5451914440637 -10.988656398656 179.4314394065401 14.5349955091316 185.1755097967467 47.9671501280729L234.9241542197532 338.0510295732013C237.205132896444 351.320664648548 232.7930208575896 364.8899903529491 223.1529722896777 374.2969462093744L12.4205116263597 579.7015734672833C-11.8877282858188 603.3937826419615 1.5151026246632 644.6511925750974 35.1137520375237 649.546139516317L326.3630950400851 691.8524666511428C339.6826785536077 693.8004557399954 351.2207677721965 702.1751438741228 357.1812813944979 714.2626659126445L487.430158677356 978.173563753701C502.4479890888527 1008.6254615614918 545.8365323841523 1008.6254615614918 560.8710122750408 978.173563753701" />
    <glyph glyph-name="tiktok"
      unicode="&#xE031;"
      horiz-adv-x="889.7777777777778" d="M22.2444444444444 205.7611111111111L22.2444444444444 200.1999999999999L22.2444444444444 205.7611111111111C22.2444444444444 200.1999999999999 22.2444444444444 205.7611111111111 22.2444444444444 205.7611111111111zM633.9666666666667 956.511111111111L633.9666666666667 956.511111111111C628.4055555555557 984.3166666666666 633.9666666666667 1001 633.9666666666667 1001H461.5722222222223V333.6666666666667C461.5722222222223 311.4222222222222 461.5722222222223 289.1777777777777 456.0111111111112 266.9333333333333C444.8888888888891 233.5666666666667 417.0833333333335 200.2000000000001 378.1555555555556 183.5166666666667C328.1055555555556 166.8333333333333 294.7388888888889 166.8333333333333 250.25 189.0777777777778L250.25 189.0777777777778C244.688888888889 194.6388888888888 239.1277777777778 194.6388888888888 233.5666666666667 200.1999999999999C183.5166666666667 233.5666666666666 172.3944444444445 289.1777777777777 172.3944444444445 328.1055555555554C177.9555555555556 378.1555555555555 200.2 411.5222222222222 239.1277777777778 439.3277777777777C294.7388888888889 478.2555555555554 361.4722222222223 456.0111111111111 361.4722222222223 456.0111111111111V589.4777777777778L361.4722222222223 589.4777777777778V628.4055555555556C328.1055555555556 633.9666666666667 294.7388888888889 633.9666666666667 266.9333333333334 628.4055555555556C239.1277777777778 622.8444444444444 222.4444444444445 617.2833333333333 200.2 611.7222222222222C166.8333333333334 595.0388888888889 139.0277777777778 578.3555555555556 111.2222222222222 556.1111111111111C83.4166666666667 533.8666666666666 55.6111111111111 500.5 38.9277777777778 467.1333333333333C33.3666666666667 456.0111111111111 5.5611111111111 405.9611111111111 0 322.5444444444445C0 278.0555555555556 11.1222222222222 228.0055555555556 16.6833333333333 205.7611111111112V205.7611111111112C16.6833333333333 205.7611111111112 16.6833333333333 205.7611111111112 16.6833333333333 205.7611111111112L16.6833333333333 205.7611111111112L16.6833333333333 205.7611111111112C22.2444444444444 189.0777777777778 38.9277777777778 155.7111111111111 61.1722222222222 122.3444444444444C88.9777777777778 94.5388888888888 111.2222222222222 72.2944444444445 139.0277777777778 55.6111111111111L139.0277777777778 55.6111111111111C222.4444444444445 0 316.9833333333334 0 316.9833333333334 0C316.9833333333334 0 322.5444444444445 0 322.5444444444445 0C344.7888888888889 0 394.8388888888889 0 450.45 27.8055555555555C517.1833333333333 61.1722222222222 556.1111111111111 105.6611111111109 556.1111111111111 105.6611111111109C556.1111111111111 105.6611111111109 556.1111111111111 105.6611111111109 556.1111111111111 105.6611111111109C567.2333333333333 116.7833333333332 595.0388888888889 150.1499999999999 611.7222222222223 200.1999999999998C628.4055555555557 239.1277777777776 633.9666666666667 289.1777777777776 633.9666666666667 311.4222222222221V667.3333333333333C633.9666666666667 667.3333333333333 661.7722222222222 645.0888888888888 661.7722222222222 645.0888888888888S700.7 617.2833333333333 767.4333333333334 600.5999999999999C811.9222222222223 589.4777777777778 873.0944444444445 583.9166666666666 873.0944444444445 583.9166666666666V761.8722222222223C850.8500000000001 761.8722222222223 806.3611111111112 767.4333333333333 761.8722222222224 789.6777777777778C756.3111111111112 795.2388888888888 750.7500000000001 795.2388888888888 739.6277777777779 800.8H739.6277777777779C722.9444444444445 811.9222222222222 706.2611111111112 828.6055555555556 689.5777777777778 845.2888888888889C656.2111111111112 884.2166666666667 639.5277777777778 928.7055555555556 633.9666666666667 956.511111111111z" />
    <glyph glyph-name="youtube"
      unicode="&#xE032;"
      horiz-adv-x="1438.9375" d="M1238.7375 982.23125C850.85 1007.25625 500.5 1007.25625 193.94375 982.23125C143.89375 975.975 106.35625 950.95 68.81875 900.9C37.5375 857.10625 12.5125 807.05625 12.5125 750.75C0 581.83125 0 412.9125 12.5125 243.99375C18.76875 193.94375 37.5375 143.8937500000001 68.81875 93.84375C100.1 43.7937499999999 143.89375 18.7687500000001 193.94375 12.5124999999999C569.31875 -12.5124999999999 919.66875 -12.5124999999999 1238.7375 12.5124999999999C1288.7875000000001 18.76875 1326.325 50.05 1363.8625 100.1C1395.14375 150.15 1413.9125000000001 193.94375 1420.16875 243.9937499999999C1432.6812499999999 419.16875 1432.6812499999999 588.0874999999999 1420.16875 763.2624999999999C1413.9125 813.3125 1395.14375 863.3625 1363.8625 907.15625C1332.58125 957.20625 1295.04375 982.23125 1238.7375 982.23125zM538.0375 250.25V757.00625L988.4875 506.75625L538.0375 250.25z" />
  </font>
</defs>
</svg>
